<?xml version="1.0" standalone="no"?>
<!DOCTYPE svg PUBLIC "-//W3C//DTD SVG 1.1//EN" "http://www.w3.org/Graphics/SVG/1.1/DTD/svg11.dtd" >
<svg xmlns="http://www.w3.org/2000/svg" xmlns:xlink="http://www.w3.org/1999/xlink" version="1.1">
<metadata>
Created by FontForge 20170910 at Wed May 16 11:50:22 2007
 By Jimmy Wärting
Copyright 1990-1999 as an unpublished work by Bitstream Inc.  All rights reserved.  Confidential.
</metadata>
<defs>
<font id="FolioBT-Light" horiz-adv-x="500" >
  <font-face 
    font-family="Folio"
    font-weight="300"
    font-stretch="normal"
    units-per-em="1000"
    panose-1="0 0 0 0 0 0 0 0 0 0"
    ascent="800"
    descent="-200"
    x-height="465"
    cap-height="713"
    bbox="-167 -236 1007 963"
    underline-thickness="44"
    underline-position="-102"
    stemh="58"
    stemv="67"
    unicode-range="U+0020-FB02"
  />
<missing-glyph horiz-adv-x="273" 
 />
    <glyph glyph-name=".notdef" horiz-adv-x="273" 
 />
    <glyph glyph-name="space" unicode=" " horiz-adv-x="273" 
 />
    <glyph glyph-name="exclam" unicode="!" horiz-adv-x="273" 
d="M113 174l-16 539h79l-16 -539h-47zM100 88h74v-88h-74v88z" />
    <glyph glyph-name="quotedbl" unicode="&#x22;" horiz-adv-x="278" 
d="M97 700v-270h-49v270h49zM231 700v-270h-50v270h50z" />
    <glyph glyph-name="numbersign" unicode="#" horiz-adv-x="769" 
d="M448 710l-82 -236h129l84 236h62l-83 -236h154l-18 -52h-155l-48 -136h166l-18 -52h-166l-83 -234h-63l84 234h-131l-84 -234h-62l83 234h-160l19 52h159l49 136h-172l17 52h173l84 236h62zM476 422h-130l-47 -136h130z" />
    <glyph glyph-name="dollar" unicode="$" horiz-adv-x="546" 
d="M250 765h50v-96c118 -12 185 -79 197 -188h-67c-8 80 -64 127 -157 127c-94 0 -157 -51 -157 -118c0 -73 49 -90 158 -112c71 -15 132 -22 180 -61c31 -25 51 -69 51 -118c0 -107 -79 -190 -205 -199v-119h-50v119c-129 17 -199 89 -208 214h67c1 -92 68 -152 167 -152
c95 0 161 60 161 132c0 80 -57 101 -173 123c-57 11 -110 17 -155 49c-39 28 -59 68 -59 119c0 103 72 173 200 184v96z" />
    <glyph glyph-name="percent" unicode="%" horiz-adv-x="731" 
d="M51 497c0 120 48 184 130 184c85 0 132 -63 132 -184s-47 -183 -132 -183c-81 0 -130 63 -130 183zM104 498c0 -85 31 -132 78 -132s79 47 79 132s-32 132 -79 132s-78 -46 -78 -132zM127 6l442 681l39 -25l-442 -681zM418 165c0 120 47 183 129 183
c85 0 133 -62 133 -183s-48 -184 -133 -184c-81 0 -129 64 -129 184zM470 165c0 -85 31 -132 78 -132s79 47 79 132s-32 132 -79 132s-78 -46 -78 -132z" />
    <glyph glyph-name="ampersand" unicode="&#x26;" horiz-adv-x="569" 
d="M236 432c60 36 91 81 91 121c0 42 -32 73 -75 73s-71 -30 -71 -82c0 -36 19 -76 55 -112zM272 385l164 -214c20 30 28 64 28 104h66v-4c0 -52 -18 -106 -52 -159l91 -112h-83l-48 63c-52 -56 -109 -84 -179 -84c-126 0 -210 85 -210 204c0 96 41 166 129 216
c-44 55 -66 105 -66 156c0 79 58 137 145 137c79 0 135 -57 135 -138c0 -59 -42 -126 -120 -169zM221 343c-66 -35 -100 -87 -100 -148c0 -86 61 -150 140 -150c48 0 92 24 138 72z" />
    <glyph glyph-name="quoteright" unicode="&#x2019;" horiz-adv-x="273" 
d="M93 713h88v-86c0 -37 -12 -74 -32 -114h-52c20 34 31 69 32 105h-36v95z" />
    <glyph glyph-name="parenleft" unicode="(" horiz-adv-x="359" 
d="M308 734v-69c-98 -42 -151 -159 -151 -344c0 -186 54 -304 151 -344v-70c-148 51 -222 188 -222 413c0 224 72 361 222 414z" />
    <glyph glyph-name="parenright" unicode=")" horiz-adv-x="359" 
d="M51 734c150 -53 222 -190 222 -414c0 -225 -74 -362 -222 -413v70c97 41 150 158 150 344c0 185 -52 302 -150 344v69z" />
    <glyph glyph-name="asterisk" unicode="*" 
d="M226 713h46v-149l141 50l20 -52l-148 -40l100 -123l-47 -33l-89 129l-88 -129l-46 34l98 122l-146 39l17 56l142 -53v149z" />
    <glyph glyph-name="plus" unicode="+" horiz-adv-x="833" 
d="M441 596v-274h268v-48h-268v-274h-48v274h-269v48h269v274h48z" />
    <glyph glyph-name="comma" unicode="," horiz-adv-x="273" 
d="M93 95h88v-86c0 -37 -12 -73 -32 -113h-52c20 34 31 68 32 104h-36v95z" />
    <glyph glyph-name="hyphen" unicode="-" horiz-adv-x="347" 
d="M76 269h195v-60h-195v60z" />
    <glyph glyph-name="period" unicode="." horiz-adv-x="273" 
d="M93 95h88v-95h-88v95z" />
    <glyph glyph-name="slash" unicode="/" horiz-adv-x="556" 
d="M509 734l46 -28l-513 -798l-42 34z" />
    <glyph glyph-name="zero" unicode="0" horiz-adv-x="546" 
d="M270 688c152 0 235 -121 235 -354s-84 -353 -235 -353c-144 0 -229 121 -229 353s85 354 229 354zM273 623c-96 0 -157 -100 -157 -288c0 -187 61 -287 157 -287s158 100 158 287s-63 288 -158 288z" />
    <glyph glyph-name="one" unicode="1" horiz-adv-x="546" 
d="M255 687h61v-687h-72v583l-89 -105l-39 44z" />
    <glyph glyph-name="two" unicode="2" horiz-adv-x="546" 
d="M148 65h338v-65h-428c10 79 47 143 112 205c80 77 153 119 193 157c37 35 56 77 56 119c0 86 -56 144 -143 144s-147 -61 -147 -156v-13h-73c0 6 -1 13 -1 19c0 135 82 214 218 214c135 0 220 -85 220 -206c0 -109 -64 -159 -158 -228s-160 -127 -187 -190z" />
    <glyph glyph-name="three" unicode="3" horiz-adv-x="546" 
d="M352 375c95 -21 148 -86 148 -177c0 -133 -86 -217 -239 -217c-130 0 -207 69 -219 193h77c8 -79 63 -126 148 -126c96 0 160 62 160 156c0 83 -60 135 -162 135c-14 0 -31 -1 -49 -3v72c11 -1 25 -2 39 -2c92 0 146 44 146 110c0 63 -47 106 -122 106
c-85 0 -135 -47 -140 -131h-78c13 126 93 199 216 199c121 0 197 -71 197 -171c0 -69 -45 -124 -122 -144z" />
    <glyph glyph-name="four" unicode="4" horiz-adv-x="546" 
d="M365 687h61v-446h82v-65h-80v-176h-69v176h-328v60zM364 586l-251 -347h248z" />
    <glyph glyph-name="five" unicode="5" horiz-adv-x="546" 
d="M85 669h379v-65h-307v-214c30 26 74 41 135 41c116 0 205 -89 205 -219c0 -141 -88 -231 -233 -231c-140 0 -219 69 -228 197h77c3 -81 61 -131 150 -131c99 0 160 61 160 163c0 92 -61 156 -150 156c-50 0 -90 -19 -116 -54h-72v357z" />
    <glyph glyph-name="six" unicode="6" horiz-adv-x="546" 
d="M496 509h-72c-14 74 -57 113 -124 113c-117 0 -189 -106 -189 -300v-4c38 75 103 115 178 115c132 0 216 -85 216 -220c0 -140 -92 -232 -229 -232c-154 0 -234 109 -234 325c0 247 96 381 262 381c108 0 174 -61 192 -178zM435 207c0 99 -61 166 -153 166
c-95 0 -159 -67 -159 -171c0 -96 61 -157 155 -157c95 0 157 65 157 162z" />
    <glyph glyph-name="seven" unicode="7" horiz-adv-x="546" 
d="M51 669h426v-53c-123 -218 -195 -425 -216 -616h-85c39 230 122 428 231 604h-356v65z" />
    <glyph glyph-name="eight" unicode="8" horiz-adv-x="546" 
d="M273 627c-83 0 -144 -54 -144 -124c0 -69 63 -121 144 -121c86 0 144 52 144 123c0 69 -56 122 -144 122zM377 354c77 -25 122 -89 122 -172c0 -125 -85 -201 -226 -201s-226 76 -226 201c0 84 45 147 122 172c-71 19 -110 71 -110 144c0 115 80 189 214 189
s214 -74 214 -189c0 -73 -39 -125 -110 -144zM273 319c-93 0 -158 -56 -158 -135c0 -86 60 -142 158 -142c99 0 158 56 158 142c0 79 -64 135 -158 135z" />
    <glyph glyph-name="nine" unicode="9" horiz-adv-x="546" 
d="M275 623c-102 0 -163 -63 -163 -162s60 -166 151 -166c95 0 161 67 161 171c0 95 -63 157 -149 157zM50 159h72c14 -74 57 -113 124 -113c117 0 189 106 189 300v4c-39 -76 -101 -115 -183 -115c-124 0 -210 86 -210 220c0 140 91 232 228 232c158 0 235 -111 235 -337
c0 -235 -99 -369 -263 -369c-109 0 -174 61 -192 178z" />
    <glyph glyph-name="colon" unicode=":" horiz-adv-x="273" 
d="M93 404h88v-95h-88v95zM93 95h88v-95h-88v95z" />
    <glyph glyph-name="semicolon" unicode=";" horiz-adv-x="273" 
d="M93 401h88v-95h-88v95zM93 95h88v-86c0 -37 -12 -73 -32 -113h-52c20 34 31 68 32 104h-36v95z" />
    <glyph glyph-name="less" unicode="&#x3c;" horiz-adv-x="833" 
d="M704 501l-499 -203l499 -202v-53l-575 235v40l575 236v-53z" />
    <glyph glyph-name="equal" unicode="=" horiz-adv-x="833" 
d="M709 413v-48h-585v48h585zM709 231v-48h-585v48h585z" />
    <glyph glyph-name="greater" unicode="&#x3e;" horiz-adv-x="833" 
d="M704 318v-40l-575 -235v53l499 202l-499 203v53z" />
    <glyph glyph-name="question" unicode="?" horiz-adv-x="491" 
d="M220 171v126c0 51 3 84 53 134c46 46 92 77 92 141c0 57 -48 97 -109 97c-75 0 -123 -50 -129 -138h-73c2 123 84 203 204 203c111 0 185 -71 185 -158c0 -84 -58 -130 -118 -192c-31 -32 -31 -50 -31 -90v-123h-74zM220 88h74v-88h-74v88z" />
    <glyph glyph-name="at" unicode="@" horiz-adv-x="1000" 
d="M591 229l30 121c-12 61 -52 97 -105 97c-102 0 -173 -100 -173 -230c0 -73 38 -115 101 -115c69 0 128 50 147 127zM634 408l29 61h46l-68 -274c-5 -22 -8 -36 -8 -45c0 -28 19 -45 52 -45c32 0 69 13 103 40c62 49 100 135 100 238c0 161 -138 283 -345 283
c-114 0 -208 -32 -284 -97c-96 -82 -145 -190 -145 -319c0 -112 37 -196 119 -262c65 -53 161 -85 266 -85c113 0 222 34 310 94l19 -27c-96 -72 -203 -108 -319 -108c-124 0 -226 30 -304 90c-101 77 -148 176 -148 310c0 133 57 251 165 340c86 71 195 108 322 108
c109 0 207 -32 272 -82c84 -65 127 -150 127 -248c0 -112 -42 -204 -119 -265c-45 -35 -98 -54 -151 -54c-63 0 -94 24 -94 74c0 4 1 9 1 14c-33 -57 -84 -88 -144 -88c-100 0 -153 56 -153 160c0 152 102 267 227 267c61 0 103 -27 124 -80z" />
    <glyph glyph-name="A" unicode="A" horiz-adv-x="667" 
d="M293 713h81l293 -713h-81l-66 162h-373l-67 -162h-80zM333 631l-159 -402h319l-158 402h-2z" />
    <glyph glyph-name="B" unicode="B" horiz-adv-x="683" 
d="M86 713h262c147 0 223 -61 223 -176c0 -73 -37 -122 -109 -149l2 -1c100 -17 159 -86 159 -180c0 -161 -93 -207 -294 -207h-243v713zM155 645v-233h189c107 0 159 31 159 112c0 87 -57 121 -178 121h-170zM155 347v-279h206c127 0 188 43 188 139s-61 140 -188 140h-206
z" />
    <glyph glyph-name="C" unicode="C" horiz-adv-x="752" 
d="M701 503h-83c-29 102 -106 158 -218 158c-155 0 -266 -126 -266 -311c0 -176 112 -298 268 -298c124 0 207 69 219 177h84c-21 -157 -134 -249 -311 -249c-94 0 -181 34 -235 88c-71 72 -110 174 -110 288c0 103 34 200 89 266c58 70 148 111 251 111
c166 0 269 -77 312 -230z" />
    <glyph glyph-name="D" unicode="D" horiz-adv-x="748" 
d="M86 713h233c244 0 381 -133 381 -357c0 -222 -142 -356 -365 -356h-249v713zM160 644v-575h154c200 0 302 97 302 287c0 189 -103 288 -302 288h-154z" />
    <glyph glyph-name="E" unicode="E" horiz-adv-x="602" 
d="M86 713h435v-69h-361v-227h319v-70h-319v-278h368v-69h-442v713z" />
    <glyph glyph-name="F" unicode="F" horiz-adv-x="565" 
d="M86 713h435v-69h-361v-227h326v-70h-326v-347h-74v713z" />
    <glyph glyph-name="G" unicode="G" horiz-adv-x="757" 
d="M691 502h-79c-31 104 -109 163 -215 163c-156 0 -263 -126 -263 -308c0 -188 113 -311 261 -311c131 0 227 92 227 228v4h-129v65h201v-343h-56l-4 115c-46 -89 -130 -137 -243 -137c-80 0 -148 23 -202 66c-90 73 -140 182 -140 313c0 109 30 194 100 272
c61 68 144 105 240 105c157 0 267 -86 302 -232z" />
    <glyph glyph-name="H" unicode="H" horiz-adv-x="699" 
d="M86 713h74v-299h379v299h74v-713h-74v345h-379v-345h-74v713z" />
    <glyph glyph-name="I" unicode="I" horiz-adv-x="257" 
d="M93 713h74v-713h-74v713z" />
    <glyph glyph-name="J" unicode="J" horiz-adv-x="537" 
d="M374 713h74v-497c0 -156 -77 -237 -216 -237c-128 0 -210 79 -210 212c0 8 0 16 1 25h73v-13c0 -101 49 -152 139 -152c106 0 139 61 139 192v470z" />
    <glyph glyph-name="K" unicode="K" horiz-adv-x="662" 
d="M90 713h74v-395l354 395h102l-282 -307l332 -406h-98l-283 356l-125 -133v-223h-74v713z" />
    <glyph glyph-name="L" unicode="L" horiz-adv-x="558" 
d="M90 713h74v-644h371v-69h-445v713z" />
    <glyph glyph-name="M" unicode="M" horiz-adv-x="896" 
d="M86 713h79l281 -619h3l282 619h80v-713h-72l5 593h-5l-261 -593h-60l-261 593h-6l6 -593h-71v713z" />
    <glyph glyph-name="N" unicode="N" horiz-adv-x="757" 
d="M86 713h78l430 -595l3 5v590h74v-713h-79l-432 601h-4l4 -601h-74v713z" />
    <glyph glyph-name="O" unicode="O" horiz-adv-x="778" 
d="M389 733c86 0 163 -30 221 -85c79 -75 119 -172 119 -292c0 -106 -38 -206 -103 -276c-64 -68 -141 -101 -237 -101c-97 0 -184 39 -243 108c-67 77 -97 162 -97 269c0 109 31 195 100 272c60 67 146 105 240 105zM388 664c-148 0 -256 -126 -256 -314
c0 -178 109 -302 256 -302c149 0 258 123 258 308c0 183 -111 308 -258 308z" />
    <glyph glyph-name="P" unicode="P" horiz-adv-x="620" 
d="M86 713h234c168 0 260 -80 260 -216c0 -144 -90 -224 -260 -224h-160v-273h-74v713zM160 644v-302h164c121 0 180 48 180 153c0 102 -59 149 -180 149h-164z" />
    <glyph glyph-name="Q" unicode="Q" horiz-adv-x="778" 
d="M388 665c-148 0 -256 -127 -256 -315c0 -178 109 -301 256 -301c149 0 258 123 258 308c0 183 -111 308 -258 308zM427 -21l-1 -26v-31c0 -35 5 -40 46 -40h59v-65h-62c-87 0 -113 17 -113 99v63c-64 4 -118 25 -165 63c-92 75 -142 183 -142 314c0 110 31 196 100 273
c60 67 147 105 240 105c86 0 163 -30 221 -85c79 -75 119 -173 119 -293c0 -199 -123 -353 -302 -377z" />
    <glyph glyph-name="R" unicode="R" horiz-adv-x="653" 
d="M86 713h273c150 0 233 -69 233 -182c0 -93 -51 -156 -138 -167l-2 -3c90 -1 127 -44 127 -135v-36c0 -93 3 -154 40 -190h-93c-22 36 -25 72 -25 114v64c0 106 -13 141 -114 141h-227v-319h-74v713zM160 644v-257h191c110 0 166 44 166 133c0 78 -58 124 -166 124h-191z
" />
    <glyph glyph-name="S" unicode="S" horiz-adv-x="653" 
d="M599 523h-80c-9 89 -77 140 -193 140c-122 0 -193 -52 -193 -133c0 -79 59 -99 195 -124c84 -15 157 -23 219 -70c39 -30 63 -78 63 -133c0 -126 -108 -225 -273 -225c-178 0 -284 89 -295 242h82c2 -105 81 -172 205 -172c119 0 198 68 198 148c0 93 -73 115 -214 140
c-74 13 -137 22 -188 56c-48 32 -73 78 -73 135c0 119 103 206 265 206c171 0 268 -75 282 -210z" />
    <glyph glyph-name="T" unicode="T" horiz-adv-x="546" 
d="M19 713h509v-72h-216v-641h-74v641h-219v72z" />
    <glyph glyph-name="U" unicode="U" horiz-adv-x="748" 
d="M86 713h75v-408c0 -73 1 -127 25 -170c29 -53 94 -84 188 -84s160 31 189 84c23 43 24 92 24 154v424h75v-452c0 -187 -97 -282 -288 -282c-192 0 -288 95 -288 282v452z" />
    <glyph glyph-name="V" unicode="V" horiz-adv-x="667" 
d="M0 712h80l252 -632h5l249 632h81l-293 -713h-81z" />
    <glyph glyph-name="W" unicode="W" horiz-adv-x="972" 
d="M12 713h76l149 -609l3 1l206 608h71l205 -609h4l158 609h77l-195 -713h-80l-204 604h-4l-203 -604h-81z" />
    <glyph glyph-name="X" unicode="X" horiz-adv-x="644" 
d="M34 713h95l193 -291l194 291h95l-247 -350l253 -363h-92l-203 309l-203 -309h-91l252 363z" />
    <glyph glyph-name="Y" unicode="Y" horiz-adv-x="620" 
d="M0 713h91l219 -382l218 382h91l-272 -454v-259h-74v259z" />
    <glyph glyph-name="Z" unicode="Z" horiz-adv-x="623" 
d="M59 713h528v-82l-474 -562h474v-69h-552v86l472 558h-448v69z" />
    <glyph glyph-name="bracketleft" unicode="[" horiz-adv-x="359" 
d="M96 713h177v-67h-109v-671h109v-68h-177v806z" />
    <glyph glyph-name="backslash" unicode="\" horiz-adv-x="556" 
d="M46 734l509 -792l-42 -34l-513 798z" />
    <glyph glyph-name="bracketright" unicode="]" horiz-adv-x="359" 
d="M86 713h177v-806h-177v68h108v671h-108v67z" />
    <glyph glyph-name="asciicircum" unicode="^" horiz-adv-x="1000" 
d="M534 712l259 -272h-70l-223 222l-224 -222h-70l260 272h68z" />
    <glyph glyph-name="underscore" unicode="_" 
d="M500 -187v-49h-500v49h500z" />
    <glyph glyph-name="quoteleft" unicode="&#x2018;" horiz-adv-x="273" 
d="M124 713h52c-20 -34 -31 -68 -32 -104h37v-95h-88v85c0 37 11 74 31 114z" />
    <glyph glyph-name="a" unicode="a" horiz-adv-x="519" 
d="M440 306v-184c0 -32 0 -72 16 -122h-72c-5 24 -8 47 -9 70c-49 -61 -104 -89 -174 -89c-103 0 -165 64 -165 152c0 95 65 126 196 144c90 12 139 24 139 72c0 44 -45 79 -122 79c-66 0 -106 -29 -121 -87h-72c24 102 88 143 207 143c128 0 177 -56 177 -178zM375 272
c-64 -43 -134 -41 -194 -56c-49 -12 -74 -42 -74 -86c0 -52 44 -91 114 -91c110 0 155 60 155 194c0 12 0 25 -1 39z" />
    <glyph glyph-name="b" unicode="b" horiz-adv-x="542" 
d="M76 713h68l-1 -321c30 60 86 94 155 94c119 0 203 -101 203 -250c0 -151 -89 -255 -202 -255c-76 0 -129 36 -161 107l3 -87h-65v712zM285 426c-80 0 -142 -72 -142 -192c0 -122 60 -194 142 -194c79 0 145 77 145 194s-61 192 -145 192z" />
    <glyph glyph-name="c" unicode="c" horiz-adv-x="477" 
d="M450 321h-70c-15 68 -61 107 -124 107c-86 0 -148 -72 -148 -192c0 -124 61 -197 149 -197c63 0 109 42 122 117h71c-13 -112 -85 -175 -199 -175c-132 0 -215 99 -215 256c0 153 85 247 219 247c109 0 180 -59 195 -163z" />
    <glyph glyph-name="d" unicode="d" horiz-adv-x="542" 
d="M398 713h67v-712h-65l3 87c-32 -72 -85 -107 -161 -107c-113 0 -202 104 -202 255c0 150 85 250 204 250c69 0 125 -34 155 -94zM256 426c-84 0 -144 -75 -144 -192s64 -194 144 -194c82 0 142 72 142 194c0 120 -62 192 -142 192z" />
    <glyph glyph-name="e" unicode="e" horiz-adv-x="528" 
d="M415 273c-7 96 -64 152 -154 152c-80 0 -141 -56 -157 -152h311zM491 215h-382c2 -109 68 -174 170 -174c65 0 115 28 141 80h71c-30 -92 -103 -140 -212 -140c-148 0 -242 97 -242 249c0 153 92 254 229 254c144 0 226 -88 226 -246c0 -8 -1 -15 -1 -23z" />
    <glyph glyph-name="f" unicode="f" horiz-adv-x="326" 
d="M315 721v-67c-26 11 -49 17 -68 17c-46 0 -73 -30 -73 -86v-120h141v-64h-141v-401h-68v401h-60v64h60v123c0 97 44 146 131 146c22 0 48 -4 78 -13z" />
    <glyph glyph-name="g" unicode="g" horiz-adv-x="542" 
d="M398 76c-30 -60 -86 -94 -155 -94c-119 0 -204 101 -204 249c0 150 88 253 202 253c76 0 128 -34 161 -106l-2 88h64v-475c0 -135 -79 -210 -217 -210c-110 0 -181 55 -191 146h69c13 -60 54 -88 128 -88c97 0 144 50 144 150zM111 231c0 -118 60 -192 144 -192
c80 0 142 72 142 192c0 122 -60 194 -142 194c-79 0 -144 -77 -144 -194z" />
    <glyph glyph-name="h" unicode="h" horiz-adv-x="523" 
d="M76 713h68l-1 -327c26 64 80 98 152 98c105 0 156 -58 156 -176v-308h-68v307c0 81 -30 119 -99 119c-92 0 -140 -62 -140 -184v-242h-68v713z" />
    <glyph glyph-name="i" unicode="i" horiz-adv-x="227" 
d="M80 641h68v-79h-68v79zM80 465h68v-465h-68v465z" />
    <glyph glyph-name="j" unicode="j" horiz-adv-x="248" 
d="M104 641h68v-79h-68v79zM104 465h68v-498c0 -125 -17 -185 -113 -185c-20 0 -39 4 -59 12v73c21 -13 38 -19 48 -19c47 0 56 38 56 119v498z" />
    <glyph glyph-name="k" unicode="k" horiz-adv-x="498" 
d="M76 713h68v-470l238 222h100l-189 -171l205 -294h-93l-158 255l-103 -89v-166h-68v713z" />
    <glyph glyph-name="l" unicode="l" horiz-adv-x="227" 
d="M80 713h68v-713h-68v713z" />
    <glyph glyph-name="m" unicode="m" horiz-adv-x="792" 
d="M719 308v-308h-68v265c0 105 -12 161 -85 161c-82 0 -132 -62 -132 -184v-242h-68v265c0 106 -14 161 -90 161c-83 0 -132 -62 -132 -184v-242h-68v465h67l-5 -79c29 62 85 98 149 98c62 0 110 -34 134 -96c30 62 87 96 154 96c91 0 144 -61 144 -176z" />
    <glyph glyph-name="n" unicode="n" horiz-adv-x="523" 
d="M451 308v-308h-68v307c0 81 -30 119 -99 119c-92 0 -140 -62 -140 -184v-242h-68v465h68l-6 -79c30 63 86 98 157 98c105 0 156 -58 156 -176z" />
    <glyph glyph-name="o" unicode="o" horiz-adv-x="532" 
d="M266 484c141 0 229 -98 229 -252s-88 -251 -229 -251s-229 98 -229 251s88 252 229 252zM266 426c-94 0 -157 -73 -157 -193s63 -193 157 -193s158 72 158 193c0 120 -64 193 -158 193z" />
    <glyph glyph-name="p" unicode="p" horiz-adv-x="542" 
d="M285 426c-82 0 -142 -72 -142 -194c0 -120 62 -192 142 -192c84 0 145 75 145 192s-66 194 -145 194zM143 74l1 -278h-68v669h65l-3 -87c32 72 85 106 161 106c113 0 202 -103 202 -254c0 -149 -84 -250 -203 -250c-69 0 -126 34 -155 94z" />
    <glyph glyph-name="q" unicode="q" horiz-adv-x="542" 
d="M398 73c-30 -60 -86 -94 -155 -94c-119 0 -203 101 -203 250c0 151 89 255 202 255c76 0 129 -34 161 -106l-3 86h65v-668h-68zM111 231c0 -117 61 -192 145 -192c80 0 142 72 142 192c0 122 -60 194 -142 194c-79 0 -145 -77 -145 -194z" />
    <glyph glyph-name="r" unicode="r" horiz-adv-x="352" 
d="M353 484v-63h-15c-135 0 -192 -65 -192 -209v-212h-69v465h69l-2 -102c48 83 107 121 196 121h13z" />
    <glyph glyph-name="s" unicode="s" horiz-adv-x="473" 
d="M425 326h-66c-2 64 -48 100 -132 100c-68 0 -113 -36 -113 -78c0 -35 28 -59 84 -69c154 -27 233 -42 233 -150c0 -88 -73 -148 -195 -148c-121 0 -193 60 -204 169h70v-2c0 -68 51 -111 134 -111c80 0 128 39 128 92c0 63 -61 65 -178 89c-95 19 -140 49 -140 122
c0 85 71 144 181 144c123 0 193 -56 198 -158z" />
    <glyph glyph-name="t" unicode="t" horiz-adv-x="350" 
d="M113 616h68v-151h116v-58h-116v-264c0 -68 2 -97 51 -97c17 0 38 7 65 19v-66c-35 -12 -64 -18 -86 -18c-90 0 -98 52 -98 156v270h-67v58h67v151z" />
    <glyph glyph-name="u" unicode="u" horiz-adv-x="523" 
d="M72 465h68v-307c0 -81 29 -119 99 -119c92 0 140 62 140 184v242h68v-465h-68l5 80c-30 -63 -85 -99 -156 -99c-105 0 -156 58 -156 176v308z" />
    <glyph glyph-name="v" unicode="v" horiz-adv-x="481" 
d="M0 465h77l161 -386h4l162 386h77l-213 -465h-56z" />
    <glyph glyph-name="w" unicode="w" horiz-adv-x="715" 
d="M7 465h79l105 -370h2l136 370h58l135 -370h3l104 370h79l-156 -465h-54l-139 382h-3l-138 -382h-55z" />
    <glyph glyph-name="x" unicode="x" horiz-adv-x="461" 
d="M19 465h94l118 -163l117 163h95l-176 -217l194 -248h-87l-143 200l-144 -200h-87l194 248z" />
    <glyph glyph-name="y" unicode="y" horiz-adv-x="491" 
d="M0 465h79l165 -375h4l165 375h76l-249 -548c-40 -89 -75 -135 -147 -135c-22 0 -48 5 -75 15v81c24 -15 45 -23 67 -23c35 0 60 22 82 66l42 85z" />
    <glyph glyph-name="z" unicode="z" horiz-adv-x="442" 
d="M49 465h349v-74l-287 -333h294v-58h-368v68l292 339h-280v58z" />
    <glyph glyph-name="braceleft" unicode="{" 
d="M417 669h-18c-92 0 -109 -31 -109 -124v-118c0 -97 -16 -145 -96 -168c80 -23 96 -71 96 -168v-118c0 -92 16 -124 105 -124c7 0 14 1 22 1v-52h-23c-137 0 -164 44 -164 180v119c0 99 -32 137 -123 137c-7 0 -14 -1 -22 -1v53c8 0 15 -1 22 -1c91 0 123 38 123 137v118
c0 136 28 181 164 181h23v-52z" />
    <glyph glyph-name="bar" unicode="|" 
d="M277 764v-1000h-53v1000h53z" />
    <glyph glyph-name="braceright" unicode="}" 
d="M271 540v-118c0 -99 32 -137 123 -137c7 0 14 1 22 1v-53c-8 0 -15 1 -22 1c-91 0 -123 -38 -123 -137v-119c0 -136 -28 -180 -164 -180h-23v52h19c90 0 108 29 108 123v118c0 97 15 145 96 168c-81 23 -96 71 -96 168v118c0 93 -16 125 -105 125c-7 0 -14 -1 -22 -1v52
h23c136 0 164 -45 164 -181z" />
    <glyph glyph-name="asciitilde" unicode="~" horiz-adv-x="833" 
d="M747 311c-66 -47 -128 -70 -189 -70c-54 0 -98 18 -141 33c-47 17 -91 34 -141 34c-59 0 -118 -28 -189 -78v55c68 47 130 71 189 71c54 0 97 -17 141 -33c48 -17 92 -35 141 -35c60 0 119 28 189 78v-55z" />
    <glyph glyph-name="exclamdown" unicode="&#xa1;" horiz-adv-x="273" 
d="M100 625v88h74v-88h-74zM113 539h47l16 -539h-79z" />
    <glyph glyph-name="cent" unicode="&#xa2;" horiz-adv-x="546" 
d="M246 599h48v-98c102 -6 168 -68 176 -164h-69c-6 65 -54 109 -121 109c-87 0 -144 -72 -144 -189c0 -125 56 -196 144 -196c68 0 114 43 124 117h71c-9 -107 -77 -173 -181 -177v-125h-48v125c-114 14 -184 107 -184 251c0 146 67 234 184 249v98z" />
    <glyph glyph-name="sterling" unicode="&#xa3;" horiz-adv-x="546" 
d="M488 504h-74c-1 72 -54 119 -135 119c-85 0 -143 -52 -143 -125c0 -42 22 -87 46 -146h155v-53h-136c12 -25 18 -49 18 -71c0 -44 -19 -92 -58 -142c26 15 49 22 72 22s45 -7 69 -19c32 -16 57 -38 89 -38c35 0 58 38 62 113h74c-14 -122 -61 -183 -135 -183
c-32 0 -58 12 -87 26c-34 16 -64 37 -102 37c-39 0 -74 -20 -110 -59l-55 53c69 55 105 117 105 175c0 24 -7 52 -20 86h-85v53h66c-26 53 -42 97 -42 142c0 120 83 194 216 194c134 0 210 -68 210 -184z" />
    <glyph glyph-name="fraction" unicode="&#x2044;" horiz-adv-x="167" 
d="M296 687l37 -27l-464 -679l-36 30z" />
    <glyph glyph-name="yen" unicode="&#xa5;" horiz-adv-x="546" 
d="M0 669h81l192 -358l193 358h80l-152 -269h124v-30h-142l-54 -96h196v-30h-212v-244h-65v244h-212v30h194l-54 96h-140v30h122z" />
    <glyph glyph-name="florin" unicode="&#x192;" horiz-adv-x="546" 
d="M511 664l-13 -60c-30 13 -51 19 -64 19c-49 0 -68 -35 -86 -114l-29 -129h98l-12 -57h-99l-66 -302c-27 -124 -52 -187 -140 -187c-31 0 -62 8 -92 25l12 62c21 -11 41 -16 61 -16c65 0 71 58 96 165l58 253h-101l12 57h102l27 122c28 127 49 187 141 187
c28 0 59 -9 95 -25z" />
    <glyph glyph-name="section" unicode="&#xa7;" 
d="M405 569h-57c-2 73 -37 112 -103 112c-51 0 -86 -34 -86 -84c0 -40 25 -67 77 -97l99 -58c75 -44 110 -88 110 -154c0 -57 -32 -104 -95 -137c35 -31 52 -66 52 -110c0 -81 -65 -139 -161 -139c-102 0 -158 58 -158 159v11h59v-3c0 -73 38 -112 108 -112
c54 0 91 33 91 82c0 58 -44 78 -107 119l-84 55c-64 41 -97 85 -97 136c0 64 32 111 97 145c-35 25 -51 56 -51 100c0 81 61 140 156 140c89 0 150 -60 150 -154v-11zM184 461c-47 -19 -73 -52 -73 -93c0 -37 26 -76 75 -106l131 -82c44 29 65 58 65 98c0 47 -26 79 -81 112
z" />
    <glyph glyph-name="currency" unicode="&#xa4;" horiz-adv-x="546" 
d="M505 494h-77c-18 82 -65 129 -128 129c-81 0 -138 -72 -153 -208h271l-10 -30h-263c-1 -16 -2 -33 -2 -50c0 -14 0 -28 1 -41h231l-10 -30h-219c14 -141 71 -216 154 -216c63 0 108 39 127 124h77c-26 -127 -96 -191 -207 -191c-117 0 -209 84 -226 283h-71l10 30h59
c-1 13 -1 26 -1 40c0 18 1 35 2 51h-70l10 30h62c20 189 110 273 225 273c112 0 190 -73 208 -194z" />
    <glyph glyph-name="quotesingle" unicode="'" horiz-adv-x="144" 
d="M97 700v-270h-49v270h49z" />
    <glyph glyph-name="quotedblleft" unicode="&#x201c;" horiz-adv-x="435" 
d="M343 514h-88v85c0 21 4 44 11 67c4 11 10 27 20 47h52c-20 -34 -31 -68 -32 -104h37v-95zM181 512h-88v86c0 37 11 73 31 113h52c-20 -34 -31 -68 -32 -104h37v-95z" />
    <glyph glyph-name="guillemotleft" unicode="&#xab;" horiz-adv-x="375" 
d="M129 376h72l-101 -143l101 -144h-72l-97 144zM271 376h72l-102 -143l102 -144h-72l-98 144z" />
    <glyph glyph-name="guilsinglleft" unicode="&#x2039;" horiz-adv-x="234" 
d="M130 377h72l-102 -139l102 -138h-72l-98 138z" />
    <glyph glyph-name="guilsinglright" unicode="&#x203a;" horiz-adv-x="234" 
d="M32 377h72l98 -139l-98 -138h-72l102 138z" />
    <glyph glyph-name="fi" unicode="&#xfb01;" horiz-adv-x="502" 
d="M315 721v-67c-26 11 -49 17 -68 17c-46 0 -71 -30 -71 -86v-120h139v-64h-139v-401h-70v401h-60v64h60v123c0 97 44 146 131 146c22 0 48 -4 78 -13zM354 641h70v-79h-70v79zM354 465h70v-465h-70v465z" />
    <glyph glyph-name="fl" unicode="&#xfb02;" horiz-adv-x="502" 
d="M315 721v-67c-26 11 -49 17 -68 17c-46 0 -71 -30 -71 -86v-120h139v-64h-139v-401h-70v401h-60v64h60v123c0 97 44 146 131 146c22 0 48 -4 78 -13zM354 713h70v-713h-70v713z" />
    <glyph glyph-name="endash" unicode="&#x2013;" 
d="M0 261h500v-44h-500v44z" />
    <glyph glyph-name="dagger" unicode="&#x2020;" 
d="M219 713h59v-209h182v-53h-182v-563h-59v564h-179v52h179v209z" />
    <glyph glyph-name="daggerdbl" unicode="&#x2021;" 
d="M218 713h59v-209h189v-53h-189v-301h189v-52h-189v-210h-59v210h-184v52h184v302h-184v52h184v209z" />
    <glyph glyph-name="periodcentered" unicode="&#xb7;" horiz-adv-x="273" 
d="M78 334c0 32 26 60 59 60s59 -27 59 -60s-27 -59 -59 -59c-31 0 -59 27 -59 59z" />
    <glyph glyph-name="paragraph" unicode="&#xb6;" 
d="M459 688h-62v-688h-40v688h-92v-688h-40v382c-115 5 -184 73 -184 170c0 100 74 170 192 170h226v-34z" />
    <glyph glyph-name="bullet" unicode="&#x2022;" horiz-adv-x="590" 
d="M150 372c0 80 65 144 145 144c79 0 144 -64 144 -144c0 -79 -65 -145 -145 -145s-144 65 -144 145z" />
    <glyph glyph-name="quotesinglbase" unicode="&#x201a;" horiz-adv-x="273" 
d="M93 95h88v-86c0 -37 -12 -73 -32 -113h-52c20 34 31 68 32 104h-36v95z" />
    <glyph glyph-name="quotedblbase" unicode="&#x201e;" horiz-adv-x="435" 
d="M255 95h88v-85c0 -21 -5 -44 -12 -67c-3 -9 -10 -25 -20 -47h-52c20 34 31 68 32 104h-36v95zM93 94h88v-86c0 -37 -12 -74 -32 -114h-52c20 34 31 69 32 105h-36v95z" />
    <glyph glyph-name="quotedblright" unicode="&#x201d;" horiz-adv-x="435" 
d="M97 512c20 34 31 68 32 104h-36v95h88v-85c0 -37 -12 -74 -32 -114h-52zM259 514c20 34 31 68 32 104h-36v95h88v-86c0 -37 -12 -73 -32 -113h-52z" />
    <glyph glyph-name="guillemotright" unicode="&#xbb;" horiz-adv-x="375" 
d="M32 376h72l98 -143l-98 -144h-72l102 144zM173 376h72l98 -143l-98 -144h-72l102 144z" />
    <glyph glyph-name="ellipsis" unicode="&#x2026;" horiz-adv-x="1000" 
d="M123 95h88v-95h-88v95zM456 95h88v-95h-88v95zM790 95h88v-95h-88v95z" />
    <glyph glyph-name="perthousand" unicode="&#x2030;" horiz-adv-x="1058" 
d="M51 497c0 120 48 184 130 184c85 0 132 -63 132 -184s-47 -183 -132 -183c-81 0 -130 63 -130 183zM104 498c0 -85 31 -132 78 -132s79 47 79 132s-32 132 -79 132s-78 -46 -78 -132zM127 6l442 681l39 -25l-442 -681zM418 165c0 120 47 183 129 183
c85 0 133 -62 133 -183s-48 -184 -133 -184c-81 0 -129 64 -129 184zM470 165c0 -85 31 -132 78 -132s79 47 79 132s-32 132 -79 132s-78 -46 -78 -132zM745 165c0 120 48 183 130 183c85 0 132 -62 132 -183s-47 -184 -132 -184c-81 0 -130 64 -130 184zM797 165
c0 -85 31 -132 78 -132s79 47 79 132s-32 132 -79 132s-78 -46 -78 -132z" />
    <glyph glyph-name="questiondown" unicode="&#xbf;" horiz-adv-x="491" 
d="M197 625v88h74v-88h-74zM197 542h74v-126c0 -51 -3 -84 -53 -134c-46 -46 -92 -77 -92 -141c0 -57 47 -97 112 -97c71 0 121 51 126 138h73c-2 -123 -84 -203 -204 -203c-111 0 -184 70 -184 158c0 84 57 129 117 191c31 32 31 51 31 91v123z" />
    <glyph glyph-name="grave" unicode="`" 
d="M135 708h74l102 -170h-45z" />
    <glyph glyph-name="acute" unicode="&#xb4;" 
d="M291 708h74l-131 -170h-45z" />
    <glyph glyph-name="circumflex" unicode="&#x2c6;" 
d="M213 708h74l98 -170h-45l-90 128l-90 -128h-45z" />
    <glyph glyph-name="tilde" unicode="&#x2dc;" 
d="M351 666h40c-17 -59 -48 -88 -93 -88c-11 0 -21 2 -32 5l-47 14c-9 3 -17 5 -26 5c-19 0 -35 -12 -45 -36h-39c14 58 47 89 94 89c10 0 19 -1 27 -4l47 -15c10 -3 19 -5 27 -5c22 0 37 11 47 35z" />
    <glyph glyph-name="macron" unicode="&#xaf;" 
d="M125 644h250v-57h-250v57z" />
    <glyph glyph-name="breve" unicode="&#x2d8;" 
d="M116 687h39c4 -49 33 -71 95 -71c61 0 90 20 94 71h40c-6 -89 -47 -128 -134 -128c-86 0 -128 39 -134 128z" />
    <glyph glyph-name="dotaccent" unicode="&#x2d9;" 
d="M213 658h74v-85h-74v85z" />
    <glyph glyph-name="dieresis" unicode="&#xa8;" 
d="M137 655h69v-80h-69v80zM294 655h69v-80h-69v80z" />
    <glyph glyph-name="ring" unicode="&#x2da;" 
d="M250 764c66 0 118 -52 118 -118s-52 -117 -118 -117s-117 51 -117 117s51 118 117 118zM250 719c-41 0 -73 -31 -73 -73c0 -41 32 -73 73 -73s73 32 73 73s-32 73 -73 73z" />
    <glyph glyph-name="cedilla" unicode="&#xb8;" 
d="M234 0h32v-54h10c68 0 106 -31 106 -82c0 -58 -37 -88 -110 -88c-41 0 -82 8 -124 20l1 37c47 -11 85 -17 115 -17c42 0 64 16 64 45c0 36 -23 50 -70 50c-7 0 -15 0 -24 -1v90z" />
    <glyph glyph-name="hungarumlaut" unicode="&#x2dd;" 
d="M237 708h65l-102 -170h-36zM361 708h65l-111 -170h-36z" />
    <glyph glyph-name="ogonek" unicode="&#x2db;" 
d="M270 9h29c-47 -41 -71 -80 -71 -117c0 -29 17 -40 54 -40h37v-51h-36c-69 0 -103 26 -103 77c0 43 30 86 90 131z" />
    <glyph glyph-name="caron" unicode="&#x2c7;" 
d="M115 708h45l90 -128l90 128h45l-98 -170h-74z" />
    <glyph glyph-name="emdash" unicode="&#x2014;" horiz-adv-x="1000" 
d="M0 261h1000v-44h-1000v44z" />
    <glyph glyph-name="AE" unicode="&#xc6;" horiz-adv-x="1025" 
d="M470 713h480v-69h-362v-227h320v-70h-320v-278h368v-69h-440v167h-326l-115 -167h-91zM507 644l-272 -413h281v413h-9z" />
    <glyph glyph-name="ordfeminine" unicode="&#xaa;" horiz-adv-x="389" 
d="M330 601v-129c0 -22 0 -50 12 -85h-54c-4 17 -6 33 -7 49c-36 -43 -78 -62 -130 -62c-77 0 -124 44 -124 106c0 67 49 88 147 101c68 8 104 17 104 50c0 31 -33 56 -91 56c-50 0 -80 -21 -91 -61h-54c18 71 66 100 155 100c96 0 133 -39 133 -125zM281 577
c-48 -30 -100 -28 -145 -39c-37 -8 -56 -29 -56 -60c0 -36 33 -64 86 -64c82 0 116 42 116 136c0 8 0 18 -1 27z" />
    <glyph glyph-name="Lslash" unicode="&#x141;" horiz-adv-x="558" 
d="M90 713h74v-296l183 131v-73l-183 -131v-275h371v-69h-445v300l-90 -65v72l90 66v340z" />
    <glyph glyph-name="Oslash" unicode="&#xd8;" horiz-adv-x="778" 
d="M671 735l40 -36l-70 -83c56 -71 88 -153 88 -260c0 -105 -38 -206 -103 -276c-63 -68 -141 -101 -237 -101c-83 0 -152 25 -216 80l-77 -92l-40 36l81 95c-58 67 -88 154 -88 258c0 110 31 195 100 272c60 67 147 105 240 105c83 0 153 -26 215 -80zM554 596
c-39 43 -99 68 -166 68c-147 0 -256 -127 -256 -308c0 -82 19 -148 55 -197zM591 555l-370 -439c48 -46 101 -68 167 -68c149 0 258 123 258 308c0 74 -18 140 -55 199z" />
    <glyph glyph-name="OE" unicode="&#x152;" horiz-adv-x="1056" 
d="M562 713h425v-69h-361v-227h318v-70h-318v-278h368v-69h-443c-41 -14 -84 -21 -131 -21c-228 0 -372 149 -372 378c0 108 35 203 95 267c67 72 158 110 265 110c50 0 101 -7 154 -21zM544 641c-45 16 -87 24 -127 24c-169 0 -285 -124 -285 -313
c0 -181 119 -304 286 -304c45 0 87 10 126 29v564z" />
    <glyph glyph-name="ordmasculine" unicode="&#xba;" horiz-adv-x="399" 
d="M200 726c105 0 171 -69 171 -177c0 -107 -66 -175 -171 -175c-106 0 -172 68 -172 175s66 177 172 177zM200 685c-71 0 -118 -51 -118 -135s47 -135 118 -135c70 0 118 50 118 135c0 84 -48 135 -118 135z" />
    <glyph glyph-name="ae" unicode="&#xe6;" horiz-adv-x="861" 
d="M397 109c-38 -85 -104 -128 -197 -128c-101 0 -164 64 -164 152c0 95 65 126 196 144c90 12 139 24 139 72c0 44 -45 79 -122 79c-66 0 -106 -29 -121 -87h-72c23 102 88 143 207 143c85 0 138 -37 156 -108c33 69 96 108 181 108c144 0 226 -88 226 -246
c0 -8 -1 -15 -1 -23h-382c2 -109 68 -174 170 -174c65 0 114 28 140 80h72c-30 -92 -103 -140 -212 -140c-100 0 -172 43 -216 128zM375 272c-64 -43 -134 -41 -194 -56c-49 -12 -74 -42 -74 -86c0 -52 44 -91 114 -91c110 0 155 60 155 194c0 12 0 25 -1 39zM443 273h310
c-7 96 -64 152 -154 152c-80 0 -140 -56 -156 -152z" />
    <glyph glyph-name="dotlessi" unicode="&#x131;" horiz-adv-x="227" 
d="M79 465h69v-465h-69v465z" />
    <glyph glyph-name="lslash" unicode="&#x142;" horiz-adv-x="227" 
d="M80 713h68v-297l79 61v-64l-79 -62v-351h-68v309l-80 -62v65l80 61v340z" />
    <glyph glyph-name="oslash" unicode="&#xf8;" horiz-adv-x="532" 
d="M475 500l35 -33l-64 -72c31 -39 49 -96 49 -163c0 -154 -88 -251 -229 -251c-59 0 -107 15 -150 49l-56 -60l-33 30l54 60c-27 38 -44 92 -44 162c0 165 87 262 229 262c60 0 106 -16 149 -53zM371 382c-27 30 -61 44 -105 44c-98 0 -159 -75 -159 -209
c0 -39 7 -73 21 -106zM397 342l-238 -264c27 -26 63 -40 104 -40c91 0 161 69 161 179c0 46 -9 87 -27 125z" />
    <glyph glyph-name="oe" unicode="&#x153;" horiz-adv-x="907" 
d="M266 426c-94 0 -157 -73 -157 -193s63 -193 157 -193s158 72 158 193c0 120 -64 193 -158 193zM804 273c-7 96 -64 152 -154 152c-80 0 -141 -56 -157 -152h311zM871 215h-383c2 -110 69 -174 171 -174c65 0 113 28 140 80h72c-30 -91 -107 -142 -212 -142
c-100 0 -167 41 -207 124c-37 -84 -95 -122 -186 -122c-141 0 -229 98 -229 251s88 252 229 252c89 0 151 -42 189 -125c36 82 105 127 192 127c139 0 225 -91 225 -247c0 -8 -1 -16 -1 -24z" />
    <glyph glyph-name="germandbls" unicode="&#xdf;" horiz-adv-x="537" 
d="M334 449v-3c113 -21 167 -94 167 -226c0 -145 -89 -239 -218 -239c-27 0 -56 5 -90 15v71c29 -16 56 -24 85 -24c88 0 155 71 155 180c0 126 -65 190 -192 190h-6v58h10c90 0 141 41 141 108c0 56 -44 96 -112 96c-88 0 -130 -48 -130 -145v-530h-68v525
c0 137 67 209 196 209c117 0 181 -57 181 -156c0 -68 -43 -116 -119 -129z" />
    <glyph glyph-name="Aacute" unicode="&#xc1;" horiz-adv-x="667" 
d="M293 713h81l293 -713h-81l-66 162h-373l-67 -162h-80zM333 631l-159 -402h319l-158 402h-2zM374 958h74l-131 -170h-45z" />
    <glyph glyph-name="Acircumflex" unicode="&#xc2;" horiz-adv-x="667" 
d="M293 713h81l293 -713h-81l-66 162h-373l-67 -162h-80zM333 631l-159 -402h319l-158 402h-2zM296 958h74l98 -170h-45l-90 128l-90 -128h-45z" />
    <glyph glyph-name="Adieresis" unicode="&#xc4;" horiz-adv-x="667" 
d="M293 713h81l293 -713h-81l-66 162h-373l-67 -162h-80zM333 631l-159 -402h319l-158 402h-2zM220 905h69v-80h-69v80zM377 905h69v-80h-69v80z" />
    <glyph glyph-name="Agrave" unicode="&#xc0;" horiz-adv-x="667" 
d="M293 713h81l293 -713h-81l-66 162h-373l-67 -162h-80zM333 631l-159 -402h319l-158 402h-2zM218 958h74l102 -170h-45z" />
    <glyph glyph-name="Aring" unicode="&#xc5;" horiz-adv-x="667" 
d="M334 963c66 0 118 -51 118 -117s-52 -118 -118 -118s-117 52 -117 118s51 117 117 117zM334 919c-41 0 -73 -32 -73 -74c0 -41 32 -73 73 -73s73 32 73 73s-32 74 -73 74zM293 696h81l293 -696h-81l-66 158h-373l-67 -158h-80zM333 616l-159 -392h319l-158 392h-2z" />
    <glyph glyph-name="Atilde" unicode="&#xc3;" horiz-adv-x="667" 
d="M293 713h81l293 -713h-81l-66 162h-373l-67 -162h-80zM333 631l-159 -402h319l-158 402h-2zM434 916h40c-17 -59 -48 -88 -93 -88c-11 0 -21 2 -32 5l-47 14c-9 3 -17 5 -26 5c-19 0 -35 -12 -45 -36h-39c14 58 47 89 94 89c10 0 19 -1 27 -4l47 -15c10 -3 19 -5 27 -5
c22 0 37 11 47 35z" />
    <glyph glyph-name="Ccedilla" unicode="&#xc7;" horiz-adv-x="752" 
d="M701 503h-83c-29 102 -106 158 -218 158c-155 0 -266 -126 -266 -311c0 -176 112 -298 268 -298c124 0 207 69 219 177h84c-21 -157 -134 -249 -311 -249c-94 0 -181 34 -235 88c-71 72 -110 174 -110 288c0 103 34 200 89 266c58 70 148 111 251 111
c166 0 269 -77 312 -230zM357 0h32v-54h10c68 0 106 -31 106 -82c0 -58 -37 -88 -110 -88c-41 0 -82 8 -124 20l1 37c47 -11 85 -17 115 -17c42 0 64 16 64 45c0 36 -23 50 -70 50c-7 0 -15 0 -24 -1v90z" />
    <glyph glyph-name="Eacute" unicode="&#xc9;" horiz-adv-x="602" 
d="M86 713h435v-69h-361v-227h319v-70h-319v-278h368v-69h-442v713zM342 958h74l-131 -170h-45z" />
    <glyph glyph-name="Ecircumflex" unicode="&#xca;" horiz-adv-x="602" 
d="M86 713h435v-69h-361v-227h319v-70h-319v-278h368v-69h-442v713zM264 958h74l98 -170h-45l-90 128l-90 -128h-45z" />
    <glyph glyph-name="Edieresis" unicode="&#xcb;" horiz-adv-x="602" 
d="M86 713h435v-69h-361v-227h319v-70h-319v-278h368v-69h-442v713zM188 905h69v-80h-69v80zM345 905h69v-80h-69v80z" />
    <glyph glyph-name="Egrave" unicode="&#xc8;" horiz-adv-x="602" 
d="M86 713h435v-69h-361v-227h319v-70h-319v-278h368v-69h-442v713zM186 958h74l102 -170h-45z" />
    <glyph glyph-name="Eth" unicode="&#xd0;" horiz-adv-x="748" 
d="M86 713h233c244 0 381 -133 381 -357c0 -222 -142 -356 -365 -356h-249v326h-86v58h86v329zM160 644v-260h185v-58h-185v-257h154c200 0 302 97 302 287c0 189 -103 288 -302 288h-154z" />
    <glyph glyph-name="Euro" unicode="&#x20ac;" horiz-adv-x="546" 
d="M505 494h-77c-18 82 -65 129 -128 129c-81 0 -138 -72 -153 -208h271l-10 -30h-263c-1 -16 -2 -33 -2 -50c0 -14 0 -28 1 -41h231l-10 -30h-219c14 -141 71 -216 154 -216c63 0 108 39 127 124h77c-26 -127 -96 -191 -207 -191c-117 0 -209 84 -226 283h-71l10 30h59
c-1 13 -1 26 -1 40c0 18 1 35 2 51h-70l10 30h62c20 189 110 273 225 273c112 0 190 -73 208 -194z" />
    <glyph glyph-name="Iacute" unicode="&#xcd;" horiz-adv-x="257" 
d="M93 713h74v-713h-74v713zM169 958h74l-131 -170h-45z" />
    <glyph glyph-name="Icircumflex" unicode="&#xce;" horiz-adv-x="257" 
d="M93 713h74v-713h-74v713zM91 958h74l98 -170h-45l-90 128l-90 -128h-45z" />
    <glyph glyph-name="Idieresis" unicode="&#xcf;" horiz-adv-x="257" 
d="M93 713h74v-713h-74v713zM15 905h69v-80h-69v80zM172 905h69v-80h-69v80z" />
    <glyph glyph-name="Igrave" unicode="&#xcc;" horiz-adv-x="257" 
d="M93 713h74v-713h-74v713zM13 958h74l102 -170h-45z" />
    <glyph glyph-name="Ntilde" unicode="&#xd1;" horiz-adv-x="757" 
d="M86 713h78l430 -595l3 5v590h74v-713h-79l-432 601h-4l4 -601h-74v713zM479 916h40c-17 -59 -48 -88 -93 -88c-11 0 -21 2 -32 5l-47 14c-9 3 -17 5 -26 5c-19 0 -35 -12 -45 -36h-39c14 58 47 89 94 89c10 0 19 -1 27 -4l47 -15c10 -3 19 -5 27 -5c22 0 37 11 47 35z
" />
    <glyph glyph-name="Oacute" unicode="&#xd3;" horiz-adv-x="778" 
d="M389 733c86 0 163 -30 221 -85c79 -75 119 -172 119 -292c0 -106 -38 -206 -103 -276c-64 -68 -141 -101 -237 -101c-97 0 -184 39 -243 108c-67 77 -97 162 -97 269c0 109 31 195 100 272c60 67 146 105 240 105zM388 664c-148 0 -256 -126 -256 -314
c0 -178 109 -302 256 -302c149 0 258 123 258 308c0 183 -111 308 -258 308zM430 958h74l-131 -170h-45z" />
    <glyph glyph-name="Ocircumflex" unicode="&#xd4;" horiz-adv-x="778" 
d="M389 733c86 0 163 -30 221 -85c79 -75 119 -172 119 -292c0 -106 -38 -206 -103 -276c-64 -68 -141 -101 -237 -101c-97 0 -184 39 -243 108c-67 77 -97 162 -97 269c0 109 31 195 100 272c60 67 146 105 240 105zM388 664c-148 0 -256 -126 -256 -314
c0 -178 109 -302 256 -302c149 0 258 123 258 308c0 183 -111 308 -258 308zM352 958h74l98 -170h-45l-90 128l-90 -128h-45z" />
    <glyph glyph-name="Odieresis" unicode="&#xd6;" horiz-adv-x="778" 
d="M389 733c86 0 163 -30 221 -85c79 -75 119 -172 119 -292c0 -106 -38 -206 -103 -276c-64 -68 -141 -101 -237 -101c-97 0 -184 39 -243 108c-67 77 -97 162 -97 269c0 109 31 195 100 272c60 67 146 105 240 105zM388 664c-148 0 -256 -126 -256 -314
c0 -178 109 -302 256 -302c149 0 258 123 258 308c0 183 -111 308 -258 308zM276 905h69v-80h-69v80zM433 905h69v-80h-69v80z" />
    <glyph glyph-name="Ograve" unicode="&#xd2;" horiz-adv-x="778" 
d="M389 733c86 0 163 -30 221 -85c79 -75 119 -172 119 -292c0 -106 -38 -206 -103 -276c-64 -68 -141 -101 -237 -101c-97 0 -184 39 -243 108c-67 77 -97 162 -97 269c0 109 31 195 100 272c60 67 146 105 240 105zM388 664c-148 0 -256 -126 -256 -314
c0 -178 109 -302 256 -302c149 0 258 123 258 308c0 183 -111 308 -258 308zM274 958h74l102 -170h-45z" />
    <glyph glyph-name="Otilde" unicode="&#xd5;" horiz-adv-x="778" 
d="M389 733c86 0 163 -30 221 -85c79 -75 119 -172 119 -292c0 -106 -38 -206 -103 -276c-64 -68 -141 -101 -237 -101c-97 0 -184 39 -243 108c-67 77 -97 162 -97 269c0 109 31 195 100 272c60 67 146 105 240 105zM388 664c-148 0 -256 -126 -256 -314
c0 -178 109 -302 256 -302c149 0 258 123 258 308c0 183 -111 308 -258 308zM490 916h40c-17 -59 -48 -88 -93 -88c-11 0 -21 2 -32 5l-47 14c-9 3 -17 5 -26 5c-19 0 -35 -12 -45 -36h-39c14 58 47 89 94 89c10 0 19 -1 27 -4l47 -15c10 -3 19 -5 27 -5c22 0 37 11 47 35z
" />
    <glyph glyph-name="Scaron" unicode="&#x160;" horiz-adv-x="653" 
d="M599 523h-80c-9 89 -77 140 -193 140c-122 0 -193 -52 -193 -133c0 -79 59 -99 195 -124c84 -15 157 -23 219 -70c39 -30 63 -78 63 -133c0 -126 -108 -225 -273 -225c-178 0 -284 89 -295 242h82c2 -105 81 -172 205 -172c119 0 198 68 198 148c0 93 -73 115 -214 140
c-74 13 -137 22 -188 56c-48 32 -73 78 -73 135c0 119 103 206 265 206c171 0 268 -75 282 -210zM191 958h45l90 -128l90 128h45l-98 -170h-74z" />
    <glyph glyph-name="Thorn" unicode="&#xde;" horiz-adv-x="620" 
d="M86 713h74v-124h160c168 0 260 -80 260 -216c0 -144 -90 -223 -260 -223h-160v-150h-74v713zM160 521v-302h164c121 0 180 47 180 152c0 102 -59 150 -180 150h-164z" />
    <glyph glyph-name="Uacute" unicode="&#xda;" horiz-adv-x="748" 
d="M86 713h75v-408c0 -73 1 -127 25 -170c29 -53 94 -84 188 -84s160 31 189 84c23 43 24 92 24 154v424h75v-452c0 -187 -97 -282 -288 -282c-192 0 -288 95 -288 282v452zM415 958h74l-131 -170h-45z" />
    <glyph glyph-name="Ucircumflex" unicode="&#xdb;" horiz-adv-x="748" 
d="M86 713h75v-408c0 -73 1 -127 25 -170c29 -53 94 -84 188 -84s160 31 189 84c23 43 24 92 24 154v424h75v-452c0 -187 -97 -282 -288 -282c-192 0 -288 95 -288 282v452zM337 958h74l98 -170h-45l-90 128l-90 -128h-45z" />
    <glyph glyph-name="Udieresis" unicode="&#xdc;" horiz-adv-x="748" 
d="M86 713h75v-408c0 -73 1 -127 25 -170c29 -53 94 -84 188 -84s160 31 189 84c23 43 24 92 24 154v424h75v-452c0 -187 -97 -282 -288 -282c-192 0 -288 95 -288 282v452zM261 905h69v-80h-69v80zM418 905h69v-80h-69v80z" />
    <glyph glyph-name="Ugrave" unicode="&#xd9;" horiz-adv-x="748" 
d="M86 713h75v-408c0 -73 1 -127 25 -170c29 -53 94 -84 188 -84s160 31 189 84c23 43 24 92 24 154v424h75v-452c0 -187 -97 -282 -288 -282c-192 0 -288 95 -288 282v452zM259 958h74l102 -170h-45z" />
    <glyph glyph-name="Yacute" unicode="&#xdd;" horiz-adv-x="620" 
d="M0 713h91l219 -382l218 382h91l-272 -454v-259h-74v259zM351 958h74l-131 -170h-45z" />
    <glyph glyph-name="Ydieresis" unicode="&#x178;" horiz-adv-x="620" 
d="M0 713h91l219 -382l218 382h91l-272 -454v-259h-74v259zM197 905h69v-80h-69v80zM354 905h69v-80h-69v80z" />
    <glyph glyph-name="Zcaron" unicode="&#x17d;" horiz-adv-x="623" 
d="M59 713h528v-82l-474 -562h474v-69h-552v86l472 558h-448v69zM176 958h45l90 -128l90 128h45l-98 -170h-74z" />
    <glyph glyph-name="aacute" unicode="&#xe1;" horiz-adv-x="519" 
d="M440 306v-184c0 -32 0 -72 16 -122h-72c-5 24 -8 47 -9 70c-49 -61 -104 -89 -174 -89c-103 0 -165 64 -165 152c0 95 65 126 196 144c90 12 139 24 139 72c0 44 -45 79 -122 79c-66 0 -106 -29 -121 -87h-72c24 102 88 143 207 143c128 0 177 -56 177 -178zM375 272
c-64 -43 -134 -41 -194 -56c-49 -12 -74 -42 -74 -86c0 -52 44 -91 114 -91c110 0 155 60 155 194c0 12 0 25 -1 39zM301 708h74l-131 -170h-45z" />
    <glyph glyph-name="acircumflex" unicode="&#xe2;" horiz-adv-x="519" 
d="M440 306v-184c0 -32 0 -72 16 -122h-72c-5 24 -8 47 -9 70c-49 -61 -104 -89 -174 -89c-103 0 -165 64 -165 152c0 95 65 126 196 144c90 12 139 24 139 72c0 44 -45 79 -122 79c-66 0 -106 -29 -121 -87h-72c24 102 88 143 207 143c128 0 177 -56 177 -178zM375 272
c-64 -43 -134 -41 -194 -56c-49 -12 -74 -42 -74 -86c0 -52 44 -91 114 -91c110 0 155 60 155 194c0 12 0 25 -1 39zM223 708h74l98 -170h-45l-90 128l-90 -128h-45z" />
    <glyph glyph-name="adieresis" unicode="&#xe4;" horiz-adv-x="519" 
d="M440 306v-184c0 -32 0 -72 16 -122h-72c-5 24 -8 47 -9 70c-49 -61 -104 -89 -174 -89c-103 0 -165 64 -165 152c0 95 65 126 196 144c90 12 139 24 139 72c0 44 -45 79 -122 79c-66 0 -106 -29 -121 -87h-72c24 102 88 143 207 143c128 0 177 -56 177 -178zM375 272
c-64 -43 -134 -41 -194 -56c-49 -12 -74 -42 -74 -86c0 -52 44 -91 114 -91c110 0 155 60 155 194c0 12 0 25 -1 39zM147 655h69v-80h-69v80zM304 655h69v-80h-69v80z" />
    <glyph glyph-name="agrave" unicode="&#xe0;" horiz-adv-x="519" 
d="M440 306v-184c0 -32 0 -72 16 -122h-72c-5 24 -8 47 -9 70c-49 -61 -104 -89 -174 -89c-103 0 -165 64 -165 152c0 95 65 126 196 144c90 12 139 24 139 72c0 44 -45 79 -122 79c-66 0 -106 -29 -121 -87h-72c24 102 88 143 207 143c128 0 177 -56 177 -178zM375 272
c-64 -43 -134 -41 -194 -56c-49 -12 -74 -42 -74 -86c0 -52 44 -91 114 -91c110 0 155 60 155 194c0 12 0 25 -1 39zM145 708h74l102 -170h-45z" />
    <glyph glyph-name="aring" unicode="&#xe5;" horiz-adv-x="519" 
d="M257 751c66 0 118 -51 118 -117s-52 -118 -118 -118s-117 52 -117 118s51 117 117 117zM257 707c-41 0 -73 -31 -73 -73c0 -41 32 -74 73 -74s73 33 73 74s-32 73 -73 73zM440 306v-184c0 -32 0 -72 16 -122h-72c-5 24 -8 47 -9 70c-49 -61 -104 -89 -174 -89
c-103 0 -165 64 -165 152c0 95 65 126 196 144c90 12 139 24 139 72c0 44 -45 79 -122 79c-66 0 -106 -29 -121 -87h-72c24 102 88 143 207 143c128 0 177 -56 177 -178zM375 272c-64 -43 -134 -41 -194 -56c-49 -12 -74 -42 -74 -86c0 -52 44 -91 114 -91
c110 0 155 60 155 194c0 12 0 25 -1 39z" />
    <glyph glyph-name="atilde" unicode="&#xe3;" horiz-adv-x="519" 
d="M440 306v-184c0 -32 0 -72 16 -122h-72c-5 24 -8 47 -9 70c-49 -61 -104 -89 -174 -89c-103 0 -165 64 -165 152c0 95 65 126 196 144c90 12 139 24 139 72c0 44 -45 79 -122 79c-66 0 -106 -29 -121 -87h-72c24 102 88 143 207 143c128 0 177 -56 177 -178zM375 272
c-64 -43 -134 -41 -194 -56c-49 -12 -74 -42 -74 -86c0 -52 44 -91 114 -91c110 0 155 60 155 194c0 12 0 25 -1 39zM361 666h40c-17 -59 -48 -88 -93 -88c-11 0 -21 2 -32 5l-47 14c-9 3 -17 5 -26 5c-19 0 -35 -12 -45 -36h-39c14 58 47 89 94 89c10 0 19 -1 27 -4l47 -15
c10 -3 19 -5 27 -5c22 0 37 11 47 35z" />
    <glyph glyph-name="brokenbar" unicode="&#xa6;" 
d="M277 699v-370h-53v370h53zM277 199v-370h-53v370h53z" />
    <glyph glyph-name="ccedilla" unicode="&#xe7;" horiz-adv-x="477" 
d="M450 321h-70c-15 68 -61 107 -124 107c-86 0 -148 -72 -148 -192c0 -124 61 -197 149 -197c63 0 109 42 122 117h71c-13 -112 -85 -175 -199 -175c-132 0 -215 99 -215 256c0 153 85 247 219 247c109 0 180 -59 195 -163zM217 0h32v-54h10c68 0 106 -31 106 -82
c0 -58 -37 -88 -110 -88c-41 0 -82 8 -124 20l1 37c47 -11 85 -17 115 -17c42 0 64 16 64 45c0 36 -23 50 -70 50c-7 0 -15 0 -24 -1v90z" />
    <glyph glyph-name="copyright" unicode="&#xa9;" horiz-adv-x="833" 
d="M416 711c97 0 187 -37 255 -105c67 -67 103 -157 103 -253c0 -98 -36 -185 -103 -251c-70 -69 -161 -107 -255 -107s-183 37 -252 106c-68 68 -105 157 -105 252s38 185 107 255c66 67 153 103 250 103zM735 353c0 86 -33 166 -92 225c-61 61 -140 94 -227 94
c-86 0 -164 -32 -223 -92c-62 -63 -95 -143 -95 -227s33 -163 94 -224s140 -94 224 -94s165 33 228 95c59 58 91 136 91 223zM524 447c-12 52 -51 82 -106 82c-78 0 -126 -63 -126 -177c0 -110 49 -173 126 -173c58 0 101 35 112 92h56c-7 -81 -77 -139 -171 -139
c-113 0 -186 82 -186 223c0 135 79 219 191 219c88 0 153 -51 161 -127h-57z" />
    <glyph glyph-name="degree" unicode="&#xb0;" horiz-adv-x="329" 
d="M165 709c75 0 135 -61 135 -136c0 -74 -60 -136 -136 -136s-135 60 -135 136s61 136 136 136zM266 573c0 56 -45 102 -101 102s-102 -46 -102 -102c0 -57 46 -101 102 -101c57 0 101 45 101 101z" />
    <glyph glyph-name="divide" unicode="&#xf7;" horiz-adv-x="833" 
d="M417 523c29 0 52 -24 52 -53c0 -28 -22 -52 -52 -52s-52 23 -52 52s24 53 52 53zM709 322v-48h-585v48h585zM417 178c29 0 52 -23 52 -52c0 -28 -22 -52 -52 -52c-29 0 -52 23 -52 52s24 52 52 52z" />
    <glyph glyph-name="eacute" unicode="&#xe9;" horiz-adv-x="528" 
d="M415 273c-7 96 -64 152 -154 152c-80 0 -141 -56 -157 -152h311zM491 215h-382c2 -109 68 -174 170 -174c65 0 115 28 141 80h71c-30 -92 -103 -140 -212 -140c-148 0 -242 97 -242 249c0 153 92 254 229 254c144 0 226 -88 226 -246c0 -8 -1 -15 -1 -23zM316 708h74
l-131 -170h-45z" />
    <glyph glyph-name="ecircumflex" unicode="&#xea;" horiz-adv-x="528" 
d="M415 273c-7 96 -64 152 -154 152c-80 0 -141 -56 -157 -152h311zM491 215h-382c2 -109 68 -174 170 -174c65 0 115 28 141 80h71c-30 -92 -103 -140 -212 -140c-148 0 -242 97 -242 249c0 153 92 254 229 254c144 0 226 -88 226 -246c0 -8 -1 -15 -1 -23zM238 708h74
l98 -170h-45l-90 128l-90 -128h-45z" />
    <glyph glyph-name="edieresis" unicode="&#xeb;" horiz-adv-x="528" 
d="M415 273c-7 96 -64 152 -154 152c-80 0 -141 -56 -157 -152h311zM491 215h-382c2 -109 68 -174 170 -174c65 0 115 28 141 80h71c-30 -92 -103 -140 -212 -140c-148 0 -242 97 -242 249c0 153 92 254 229 254c144 0 226 -88 226 -246c0 -8 -1 -15 -1 -23zM162 655h69v-80
h-69v80zM319 655h69v-80h-69v80z" />
    <glyph glyph-name="egrave" unicode="&#xe8;" horiz-adv-x="528" 
d="M415 273c-7 96 -64 152 -154 152c-80 0 -141 -56 -157 -152h311zM491 215h-382c2 -109 68 -174 170 -174c65 0 115 28 141 80h71c-30 -92 -103 -140 -212 -140c-148 0 -242 97 -242 249c0 153 92 254 229 254c144 0 226 -88 226 -246c0 -8 -1 -15 -1 -23zM160 708h74
l102 -170h-45z" />
    <glyph glyph-name="eth" unicode="&#xf0;" horiz-adv-x="532" 
d="M401 734l25 -38l-119 -76c126 -104 189 -227 189 -371c0 -171 -85 -268 -230 -268c-141 0 -229 98 -229 251c0 151 92 253 216 253c50 0 95 -18 141 -54c-23 55 -70 108 -138 155l-140 -87l-25 39l120 74c-39 26 -84 48 -136 68l24 54c58 -21 113 -49 165 -85zM266 426
c-94 0 -157 -73 -157 -193s63 -193 157 -193s158 72 158 193c0 120 -64 193 -158 193z" />
    <glyph glyph-name="iacute" unicode="&#xed;" horiz-adv-x="227" 
d="M79 465h69v-465h-69v465zM155 708h74l-131 -170h-45z" />
    <glyph glyph-name="icircumflex" unicode="&#xee;" horiz-adv-x="227" 
d="M79 465h69v-465h-69v465zM77 708h74l98 -170h-45l-90 128l-90 -128h-45z" />
    <glyph glyph-name="idieresis" unicode="&#xef;" horiz-adv-x="227" 
d="M79 465h69v-465h-69v465zM1 655h69v-80h-69v80zM158 655h69v-80h-69v80z" />
    <glyph glyph-name="igrave" unicode="&#xec;" horiz-adv-x="227" 
d="M79 465h69v-465h-69v465zM-1 708h74l102 -170h-45z" />
    <glyph glyph-name="logicalnot" unicode="&#xac;" horiz-adv-x="833" 
d="M709 419v-245h-47v196h-538v49h585z" />
    <glyph glyph-name="minus" unicode="&#x2212;" horiz-adv-x="833" 
d="M709 322v-48h-585v48h585z" />
    <glyph glyph-name="mu" unicode="&#xb5;" horiz-adv-x="542" 
d="M168 520l-61 -289c-5 -23 -8 -45 -8 -68c0 -76 39 -119 110 -119c80 0 141 69 170 204l59 272h68l-80 -376c-7 -31 -11 -52 -11 -65c0 -21 11 -32 33 -32c2 0 8 0 18 1l-10 -54c-15 -4 -30 -5 -42 -5c-46 0 -67 23 -67 71v7c-27 -50 -80 -79 -146 -79
c-60 0 -106 27 -131 76l-56 -272h-68l154 728h68z" />
    <glyph glyph-name="multiply" unicode="&#xd7;" horiz-adv-x="833" 
d="M418 332l235 235l34 -34l-235 -235l235 -235l-34 -34l-235 235l-235 -235l-34 34l235 235l-235 235l34 34z" />
    <glyph glyph-name="ntilde" unicode="&#xf1;" horiz-adv-x="523" 
d="M451 308v-308h-68v307c0 81 -30 119 -99 119c-92 0 -140 -62 -140 -184v-242h-68v465h68l-6 -79c30 63 86 98 157 98c105 0 156 -58 156 -176zM373 666h40c-17 -59 -48 -88 -93 -88c-11 0 -21 2 -32 5l-47 14c-9 3 -17 5 -26 5c-19 0 -35 -12 -45 -36h-39
c14 58 47 89 94 89c10 0 19 -1 27 -4l47 -15c10 -3 19 -5 27 -5c22 0 37 11 47 35z" />
    <glyph glyph-name="oacute" unicode="&#xf3;" horiz-adv-x="532" 
d="M266 484c141 0 229 -98 229 -252s-88 -251 -229 -251s-229 98 -229 251s88 252 229 252zM266 426c-94 0 -157 -73 -157 -193s63 -193 157 -193s158 72 158 193c0 120 -64 193 -158 193zM307 708h74l-131 -170h-45z" />
    <glyph glyph-name="ocircumflex" unicode="&#xf4;" horiz-adv-x="532" 
d="M266 484c141 0 229 -98 229 -252s-88 -251 -229 -251s-229 98 -229 251s88 252 229 252zM266 426c-94 0 -157 -73 -157 -193s63 -193 157 -193s158 72 158 193c0 120 -64 193 -158 193zM229 708h74l98 -170h-45l-90 128l-90 -128h-45z" />
    <glyph glyph-name="odieresis" unicode="&#xf6;" horiz-adv-x="532" 
d="M266 484c141 0 229 -98 229 -252s-88 -251 -229 -251s-229 98 -229 251s88 252 229 252zM266 426c-94 0 -157 -73 -157 -193s63 -193 157 -193s158 72 158 193c0 120 -64 193 -158 193zM153 655h69v-80h-69v80zM310 655h69v-80h-69v80z" />
    <glyph glyph-name="ograve" unicode="&#xf2;" horiz-adv-x="532" 
d="M266 484c141 0 229 -98 229 -252s-88 -251 -229 -251s-229 98 -229 251s88 252 229 252zM266 426c-94 0 -157 -73 -157 -193s63 -193 157 -193s158 72 158 193c0 120 -64 193 -158 193zM151 708h74l102 -170h-45z" />
    <glyph glyph-name="onehalf" unicode="&#xbd;" horiz-adv-x="855" 
d="M161 679h38v-385h-45v326l-56 -58l-25 24zM640 687l37 -27l-464 -679l-36 30zM604 36h213v-36h-269c6 44 29 80 70 115c50 43 96 66 122 88c23 19 35 43 35 66c0 49 -35 81 -90 81s-93 -34 -93 -87v-8h-46v11c0 76 51 120 137 120c85 0 139 -48 139 -116
c0 -61 -41 -89 -100 -127c-59 -39 -101 -71 -118 -107z" />
    <glyph glyph-name="onequarter" unicode="&#xbc;" horiz-adv-x="855" 
d="M161 679h38v-385h-45v326l-56 -58l-25 24zM640 687l37 -27l-464 -679l-36 30zM741 385h38v-250h52v-36h-50v-99h-44v99h-206v33zM740 328l-158 -194h156z" />
    <glyph glyph-name="onesuperior" unicode="&#xb9;" horiz-adv-x="361" 
d="M168 680h40v-412h-47v350l-59 -63l-26 26z" />
    <glyph glyph-name="otilde" unicode="&#xf5;" horiz-adv-x="532" 
d="M266 484c141 0 229 -98 229 -252s-88 -251 -229 -251s-229 98 -229 251s88 252 229 252zM266 426c-94 0 -157 -73 -157 -193s63 -193 157 -193s158 72 158 193c0 120 -64 193 -158 193zM367 666h40c-17 -59 -48 -88 -93 -88c-11 0 -21 2 -32 5l-47 14c-9 3 -17 5 -26 5
c-19 0 -35 -12 -45 -36h-39c14 58 47 89 94 89c10 0 19 -1 27 -4l47 -15c10 -3 19 -5 27 -5c22 0 37 11 47 35z" />
    <glyph glyph-name="plusminus" unicode="&#xb1;" horiz-adv-x="833" 
d="M441 571v-170h268v-48h-268v-170h-48v170h-269v48h269v170h48zM709 73v-48h-585v48h585z" />
    <glyph glyph-name="registered" unicode="&#xae;" horiz-adv-x="833" 
d="M416 711c98 0 187 -36 255 -105c67 -67 103 -157 103 -253c0 -98 -36 -185 -103 -251c-70 -69 -161 -107 -255 -107c-95 0 -184 37 -252 106c-68 68 -105 157 -105 252c0 94 38 185 107 255c66 67 153 103 250 103zM735 352c0 87 -32 167 -91 226c-61 61 -141 94 -228 94
c-86 0 -163 -33 -222 -92c-62 -63 -96 -143 -96 -227s33 -163 94 -224s140 -94 224 -94s165 33 228 95c60 58 91 135 91 222zM427 565c114 0 170 -35 170 -114c0 -57 -37 -100 -97 -108l92 -190h-71l-87 181h-96v-181h-62v412h151zM415 523h-77v-148h77c81 0 118 16 118 72
c0 55 -37 76 -118 76z" />
    <glyph glyph-name="scaron" unicode="&#x161;" horiz-adv-x="473" 
d="M425 326h-66c-2 64 -48 100 -132 100c-68 0 -113 -36 -113 -78c0 -35 28 -59 84 -69c154 -27 233 -42 233 -150c0 -88 -73 -148 -195 -148c-121 0 -193 60 -204 169h70v-2c0 -68 51 -111 134 -111c80 0 128 39 128 92c0 63 -61 65 -178 89c-95 19 -140 49 -140 122
c0 85 71 144 181 144c123 0 193 -56 198 -158zM102 708h45l90 -128l90 128h45l-98 -170h-74z" />
    <glyph glyph-name="thorn" unicode="&#xfe;" horiz-adv-x="542" 
d="M76 713h68l-6 -335c32 72 85 106 161 106c113 0 202 -103 202 -254c0 -149 -84 -250 -203 -250c-69 0 -126 34 -155 94l1 -278h-68v917zM285 426c-82 0 -142 -72 -142 -194c0 -120 62 -192 142 -192c84 0 145 75 145 192s-66 194 -145 194z" />
    <glyph glyph-name="threequarters" unicode="&#xbe;" horiz-adv-x="855" 
d="M222 504c60 -12 93 -48 93 -99c0 -75 -54 -122 -151 -122c-81 0 -130 39 -138 108h49c5 -44 40 -70 93 -70c61 0 101 35 101 87c0 47 -38 76 -102 76c-9 0 -20 -1 -31 -2v40c7 0 16 -1 25 -1c58 0 92 25 92 62c0 35 -30 59 -77 59c-54 0 -85 -26 -88 -73h-50
c9 71 59 111 137 111c76 0 124 -39 124 -95c0 -39 -29 -70 -77 -81zM640 687l37 -27l-464 -679l-36 30zM741 385h38v-250h52v-36h-50v-99h-44v99h-206v33zM740 328l-158 -194h156z" />
    <glyph glyph-name="threesuperior" unicode="&#xb3;" horiz-adv-x="360" 
d="M232 493c63 -13 98 -52 98 -106c0 -80 -57 -130 -158 -130c-86 0 -136 41 -144 115h51c5 -47 41 -75 97 -75c64 0 106 37 106 93c0 50 -40 81 -107 81c-9 0 -21 0 -32 -1v43c7 -1 16 -1 25 -1c61 0 97 26 97 66c0 37 -31 63 -81 63c-56 0 -89 -28 -92 -78h-52
c9 75 62 119 143 119c80 0 130 -43 130 -103c0 -41 -30 -74 -81 -86z" />
    <glyph glyph-name="trademark" unicode="&#x2122;" horiz-adv-x="833" 
d="M339 710v-28h-84v-231h-40v231h-86v28h210zM458 710l81 -206l76 206h57v-259h-35v228l-86 -228h-24l-91 228v-228h-35v259h57z" />
    <glyph glyph-name="twosuperior" unicode="&#xb2;" horiz-adv-x="360" 
d="M98 307h223v-39h-283c7 47 31 86 74 123c53 46 101 71 128 94c24 21 37 46 37 72c0 51 -37 86 -95 86c-57 0 -97 -37 -97 -94v-7h-48c0 3 -1 7 -1 11c0 81 54 128 144 128c89 0 145 -51 145 -123c0 -66 -42 -96 -104 -137s-105 -76 -123 -114z" />
    <glyph glyph-name="uacute" unicode="&#xfa;" horiz-adv-x="523" 
d="M72 465h68v-307c0 -81 29 -119 99 -119c92 0 140 62 140 184v242h68v-465h-68l5 80c-30 -63 -85 -99 -156 -99c-105 0 -156 58 -156 176v308zM304 708h74l-131 -170h-45z" />
    <glyph glyph-name="ucircumflex" unicode="&#xfb;" horiz-adv-x="523" 
d="M72 465h68v-307c0 -81 29 -119 99 -119c92 0 140 62 140 184v242h68v-465h-68l5 80c-30 -63 -85 -99 -156 -99c-105 0 -156 58 -156 176v308zM226 708h74l98 -170h-45l-90 128l-90 -128h-45z" />
    <glyph glyph-name="udieresis" unicode="&#xfc;" horiz-adv-x="523" 
d="M72 465h68v-307c0 -81 29 -119 99 -119c92 0 140 62 140 184v242h68v-465h-68l5 80c-30 -63 -85 -99 -156 -99c-105 0 -156 58 -156 176v308zM150 655h69v-80h-69v80zM307 655h69v-80h-69v80z" />
    <glyph glyph-name="ugrave" unicode="&#xf9;" horiz-adv-x="523" 
d="M72 465h68v-307c0 -81 29 -119 99 -119c92 0 140 62 140 184v242h68v-465h-68l5 80c-30 -63 -85 -99 -156 -99c-105 0 -156 58 -156 176v308zM148 708h74l102 -170h-45z" />
    <glyph glyph-name="yacute" unicode="&#xfd;" horiz-adv-x="491" 
d="M0 465h79l165 -375h4l165 375h76l-249 -548c-40 -89 -75 -135 -147 -135c-22 0 -48 5 -75 15v81c24 -15 45 -23 67 -23c35 0 60 22 82 66l42 85zM287 708h74l-131 -170h-45z" />
    <glyph glyph-name="ydieresis" unicode="&#xff;" horiz-adv-x="491" 
d="M0 465h79l165 -375h4l165 375h76l-249 -548c-40 -89 -75 -135 -147 -135c-22 0 -48 5 -75 15v81c24 -15 45 -23 67 -23c35 0 60 22 82 66l42 85zM133 655h69v-80h-69v80zM290 655h69v-80h-69v80z" />
    <glyph glyph-name="zcaron" unicode="&#x17e;" horiz-adv-x="442" 
d="M49 465h349v-74l-287 -333h294v-58h-368v68l292 339h-280v58zM86 708h45l90 -128l90 128h45l-98 -170h-74z" />
    </font>
</defs>
</svg>
